Скачать через торрент Монстры на каникулах 3: Море зовёт Hotel Transylvania 3: Summer Vacation Фильм бесплатно в хорошем качестве torrent

Скачивайте на UnionPeer.org фильмы через торрент без регистрации. Новинки кино в хорошем качестве через торрент. На UnionPeer.org можно скачать через торрент фильмы 2014 и 2015 годов. Самые новые фильмы.

Скачать торрент Монстры на каникулах 3: Море зовёт Hotel Transylvania 3: Summer Vacation бесплатно через .torrent фильм мультфильм сериал

Статистика раздачи
Размер:  3.67 GB   |    Зарегистрирован:  8 дней   |    .torrent скачан:  84 раза   |   
Раздают:  1  
   
загрузка...
 
Автор Сообщение

Galfimbul

avatar Galfimbul


Монстры на каникулах 3:Море зовёт /Hotel Transylvania 3: Summer Vacation

Год выхода: 2018
Жанр: Мультипликация
Режиссер: Генндий Тартаковский
В ролях: Мэл Брукс, Адам Сэндлер, Селена Гомес, Энди Сэмберг, Кэтрин Хан, Фрэн Дрешер, Стив Бушеми, Дэвид Спейд, Тара Стронг, Кигэн-Майкл Ки

О фильме:
На этот раз Дракула вместе со своими друзьями отправляется в круиз на шикарном лайнере. Развлечения там на любой вкус: от монстробаскетбола и экзотических экскурсий, до лунных ванн. Неожиданно Дракула влюбляется в капитана корабля — загадочную и прекрасную Эрику, и его дочка Мэвис понимает, что поездка может превратиться в кошмар: ведь Эрика хранит ужасный секрет, который ставит под угрозу существование всех монстров!

Страна: США
Студия: Columbia Pictures, Media Rights Capital (MRC), Sony Pictures Animation
Продолжительность: 01:37:23
Перевод: Дублированный

Файл
Кодек: HEVC x265 10 bit
Качество: BDRip-HEVC 1080p
Видео: 1920x1034, 5000 Кбит/сек, 23,976 кадр/сек (24000/1001), HEVC (Main10@L.4.1@High) 10 бит
Звук: Русский (AC3, 6 ch, 384 Кбит/с)
Субтитры: Русские форсированные
Video
ID : 1
Format : HEVC
Format/Info : High Efficiency Video Coding
Format profile : Main 10@L4.1@High
Codec ID : V_MPEGH/ISO/HEVC
Duration : 1 h 37 min
Bit rate : 5 010 kb/s
Width : 1 920 pixels
Height : 1 034 pixels
Display aspect ratio : 1,85:1
Frame rate mode : Constant
Frame rate : 23.976 (24000/1001) FPS
Color space : YUV
Chroma subsampling : 4:2:0 (Type 0)
Bit depth : 10 bits
Bits/(Pixel*Frame) : 0.105
Stream size : 3,41 Гбайт (93%)
Default : Yes
Forced : No

Audio #1
ID : 2
Format : AC-3
Format/Info : Audio Coding 3
Commercial name : Dolby Digital
Codec ID : A_AC3
Duration : 1 h 34 min
Bit rate mode : Constant
Bit rate : 384 kb/s
Channel(s) : 6 channels
Channel layout : L R C LFE Ls Rs
Sampling rate : 48.0 kHz
Frame rate : 31.250 FPS (1536 SPF)
Bit depth : 16 bits
Compression mode : Lossy
Stream size : 267 Мбайт (7%)
Language : Russian
Service kind : Complete Main
Default : No
Forced : No
Релиз от: Патриарх
Источник http://BlaTor.org

Трекер:  [ 08-Ноя-2018 09:20 ]

  

Скачать .torrent

Размер .torrent файла 19 KB


Размер: 3.67 GB
Хэш (hash) релиза: d615dcc8e288dea7ec52975e9bb8c9b786c794b5
Подписка на обновления:

Торренты, похожие на Монстры на каникулах 3: Море зовёт Hotel Transylvania 3: Summer Vacation скачать торрент

Форум Название Автор Размер S L Добавлен
Мультфильмы 2016-2018 (Новинки мультфильмов) ·%· Монстры на каникулах 3: Море зовёт / Hotel Transylvania 3: Summer Vacation (2018) UHD Blu-ray EUR 2160p | 4K | HDR | Лицензия Galfimbul 5608777580352.24 GB 0 0 1541960588

21:23

11-Ноя-18

Мультфильмы 2016-2018 (Новинки мультфильмов) ·%· Монстры на каникулах 3: Море зовёт / Hotel Transylvania 3: Summer Vacation (2018) BDRip 1080p от HELLYWOOD | Лицензия Galfimbul 83309141547.76 GB 0 0 1541916031

09:00

11-Ноя-18

Мультфильмы 2016-2018 (Новинки мультфильмов) ·%· Монстры на каникулах 3: Море зовёт / Hotel Transylvania 3: Summer Vacation (2018) BDRemux 1080p от селезень | Лицензия Galfimbul 2079410601919.37 GB 0 0 1541892775

02:32

11-Ноя-18

Мультфильмы 2016-2018 (Новинки мультфильмов) ·%· Монстры на каникулах 3: Море зовёт / Hotel Transylvania 3: Summer Vacation (2018) UHD BDRemux 2160p от селезень | 4K | HDR | Лицензия Galfimbul 4146456801838.62 GB 0 0 1541892766

02:32

11-Ноя-18

Мультфильмы 2016-2018 (Новинки мультфильмов) ·%· Монстры на каникулах 3: Море зовёт / Hotel Transylvania 3: Summer Vacation (2018) BDRip 720p от селезень | Лицензия Galfimbul 55268033885.15 GB 0 0 1541861529

17:52

10-Ноя-18

Мультфильмы 2016-2018 (Новинки мультфильмов) ·%· Монстры на каникулах 3: Море зовёт / Hotel Transylvania 3: Summer Vacation (2018) UHD BDRemux 2160p от TeamHD | 4K | HDR | iTunes Galfimbul 4092655618238.12 GB 0 0 1538865011

01:30

7-Окт-18

Мультфильмы 2016-2018 (Новинки мультфильмов) ·%· Монстры на каникулах 3: Море зовёт / Hotel Transylvania 3: Summer Vacation (2018) HDRip от Kaztorrents | КПК | iTunes Galfimbul 388327974370 MB 0 0 1538113819

08:50

28-Сен-18

Мультфильмы 2016-2018 (Новинки мультфильмов) ·%· Монстры на каникулах 3: Море зовёт / Hotel Transylvania 3: Summer Vacation (2018) BDRip от ExKinoRay | iTunes Galfimbul 15220080861.42 GB 0 0 1538083219

00:20

28-Сен-18

Мультфильмы 2016-2018 (Новинки мультфильмов) ·%· Монстры на каникулах 3: Море зовёт / Hotel Transylvania 3: Summer Vacation (2018) BDRip от MegaPeer | iTunes Galfimbul 783843030748 MB 0 0 1538063502

18:51

27-Сен-18

Мультфильмы 2016-2018 (Новинки мультфильмов) ·%· Монстры на каникулах 3: Море зовёт / Hotel Transylvania 3: Summer Vacation (2018) BDRemux 1080p | iTunes Galfimbul 2025326808018.86 GB 0 0 1538035824

11:10

27-Сен-18

Мультфильмы 2016-2018 (Новинки мультфильмов) ·%· Монстры на каникулах 3: Море зовёт / Hotel Transylvania 3: Summer Vacation (2018) WEB-DLRip-AVC от Generalfilm | iTunes Galfimbul 13521217511.26 GB 0 0 1537948818

11:00

26-Сен-18

Мультфильмы 2016-2018 (Новинки мультфильмов) ·%· Монстры на каникулах 3: Море зовёт / Hotel Transylvania 3: Summer Vacation (2018) WEB-DLRip-AVC от ExKinoRay | iTunes Galfimbul 20562707791.92 GB 0 0 1537849821

07:30

25-Сен-18

Еще никто не оставлял запись к записи скачать торрент Монстры на каникулах 3: Море зовёт Hotel Transylvania 3: Summer Vacation . Будь первым!

!Обратная связь