Скачать через торрент Непрощенный Фильм бесплатно в хорошем качестве torrent

Скачивайте на UnionPeer.org фильмы через торрент без регистрации. Новинки кино в хорошем качестве через торрент. На UnionPeer.org можно скачать через торрент фильмы 2014 и 2015 годов. Самые новые фильмы.

Скачать торрент Непрощенный бесплатно через .torrent фильм мультфильм сериал

Статистика раздачи
Размер:  1.46 GB   |    Зарегистрирован:  22 дня   |    .torrent скачан:  363 раза   |   
Раздают:  1  
   
загрузка...
 
Автор Сообщение

Galfimbul

avatar Galfimbul


Информация о фильме
Непрощенный



[b]Год выпуска:
2018
Жанр: Драма
Режиссер: Сарик Андреасян
В ролях: Дмитрий Нагиев, Марджан Аветисян, Самвел Мужикян, Роза Хайруллина, Карина Каграманян, Артём Шкляев, Михаил Горевой, Ирина Безрукова, Вадим Цаллати, Себастьян Сисак, Андрюс Паулавичюс, Микаэл Джанибекян, Оливье Сиу

О фильме:
Жизнь для инженера-строителя Виталия Калоева остановилась в ту самую секунду, когда самолет «Башкирских авиалиний», в котором летели его жена и дети, столкнулся над Боденским озером с транспортным бортом. Не дождавшись семьи в аэропорту Барселоны, Виталий отправляется на место катастрофы, где находит тела своих родных. Калоев теряет все, ради чего жил. Не дождавшись справедливого решения суда, Виталий ищет диспетчера, по вине которого погибла его семья…



Страна: Россия
Студия: Big Cinema House
Продолжительность: 01:44:14
Язык: Русский
Субтитры: Русские (хардсаб на английскую речь)

Файл
Формат: avi
Качество: WEB-DLRip
Видео: XviD build 73, 720x304 (2.35:1), 25.000 fps, 1607 Kbps (0.294 bit/pixel)
Звук: 48.0 kHz, AC3, 5/1 ch, 384 kbps
General
Complete name : D:RazdachiNeproshennyj.2018.XviD.1.45Gb.WEB-DLRip.GeneralFilm.avi
Format : AVI
Format/Info : Audio Video Interleave
File size : 1.46 GiB
Duration : 1 h 44 min
Overall bit rate : 2 000 kb/s
Writing application : VirtualDubMod 1.5.10.3 | www.virtualdub-fr.org || (build 2550/release)
Writing library : VirtualDubMod build 2550/release

Video
ID : 0
Format : MPEG-4 Visual
Format profile : Advanced Simple@L5
Format settings, BVOP : 1
Format settings, QPel : No
Format settings, GMC : No warppoints
Format settings, Matrix : Custom
Codec ID : XVID
Codec ID/Hint : XviD
Duration : 1 h 44 min
Bit rate : 1 607 kb/s
Width : 720 pixels
Height : 304 pixels
Display aspect ratio : 2.35:1
Frame rate : 25.000 FPS
Color space : YUV
Chroma subsampling : 4:2:0
Bit depth : 8 bits
Scan type : Progressive
Compression mode : Lossy
Bits/(Pixel*Frame) : 0.294
Stream size : 1.17 GiB (80%)
Writing library : XviD 73

Audio
ID : 1
Format : AC-3
Format/Info : Audio Coding 3
Format settings, Endianness : Big
Codec ID : 2000
Duration : 1 h 44 min
Bit rate mode : Constant
Bit rate : 384 kb/s
Channel(s) : 6 channels
Channel positions : Front: L C R, Side: L R, LFE
Sampling rate : 48.0 kHz
Frame rate : 31.250 FPS (1536 SPF)
Bit depth : 16 bits
Compression mode : Lossy
Stream size : 286 MiB (19%)
Alignment : Split accross interleaves
Interleave, duration : 40 ms (1.00 video frame)
Interleave, preload duratio : 500 ms
Service kind : Complete Main
Релиз от:
Источник http://BlaTor.org

Трекер:  [ 27-Окт-2018 19:10 ]

  

Скачать .torrent

Размер .torrent файла 15 KB


Размер: 1.46 GB
Хэш (hash) релиза: 41aea5a6268a72313858bbb44695770e6170a5fd
Подписка на обновления:

Торренты, похожие на Непрощенный скачать торрент

Форум Название Автор Размер S L Добавлен
Документальные фильмы и телепередачи ·· Непрощенные. Нестор Махно / Непрощені. Нестор Махно (Виктор Шкурин) [2007, документальный, TVRip] damien1990 838405280800 MB 0 0 1363376374

22:39

15-Мар-13

Российские фильмы 2016-2018 (Новинки русского кино) ·%· Непрощенный (2018) WEB-DLRip от Scarabey Galfimbul 15246336001.42 GB 0 0 1540741888

18:51

28-Окт-18

Российские фильмы 2016-2018 (Новинки русского кино) ·%· Непрощенный (2018) WEB-DLRip-AVC от OlLanDGroup Galfimbul 17387802631.62 GB 0 0 1540653334

18:15

27-Окт-18

Российские фильмы 2016-2018 (Новинки русского кино) ·%· Непрощенный (2018) WEB-DLRip от Portablius Galfimbul 781926400746 MB 0 0 1540644660

15:51

27-Окт-18

Российские фильмы 2016-2018 (Новинки русского кино) ·%· Непрощенный (2018) WEB-DLRip-AVC от ExKinoRay Galfimbul 15542461781.45 GB 0 0 1540620101

09:01

27-Окт-18

Зарубежные фильмы до 2016 ·· Непрощенный / Unforgiven (Клинт Иствуд / Clint Eastwood) [1992, США, драма, вестерн, UHD Blu-ray disc 2160p] [EUR] MVO + Sub Rus, Eng + Original Eng Galfimbul 6431412302359.9 GB 0 0 1512117412

11:36

1-Дек-17

Российские фильмы до 2016 ·· Непрощённые (Клим Шипенко) [2009, Россия, драма, криминал, DVD9] Original Rus Galfimbul 72779591686.78 GB 0 0 1511285777

20:36

21-Ноя-17

Зарубежные фильмы до 2016 ·· Непрощенный / Unforgiven (Клинт Иствуд) [720p/DVD9][1992, Драма, вестерн, HD-DVDRip] Galfimbul 76621635167.14 GB 0 0 1495185775

12:22

19-Май-17

Азиатские фильмы ·· Непрощенный / Unforgiven / Yurusarezaru mono (Ли Сан Иль / Lee Sang Il) [2013, Япония, драма, HDRip] VO [BadCatStudio] Galfimbul 15731404801.47 GB 0 0 1414213488

08:04

25-Окт-14

Азиатские фильмы ·· Непрощенный / Unforgiven / Yurusarezaru mono (Ли Сан Иль / Lee Sang Il) [2013, Япония, Япония, HDRip] VO [Nosferatu13fd] + VO [BadCatStudio] + original Jap + Sub (rus, eng, chin) Galfimbul 30533644032.84 GB 0 0 1414013672

00:34

23-Окт-14

Азиатские фильмы ·· Непрощенный / Unforgiven / Yurusarezaru mono (Ли Сан Иль / Lee Sang Il) [2013, Япония, Драма, BDRip 720p] VO (CinemaSET) + Sub Rus, Eng + Original Jap Galfimbul 75711860557.05 GB 0 0 1413651813

20:03

18-Окт-14

Азиатские фильмы ·· Непрощённый / Unforgiven / Yurusarezaru mono (Ли Сан Иль / Lee Sang Il) [2013, Япония, Драма, DVDRip] VO Galfimbul 14609982001.36 GB 0 0 1413345882

07:04

15-Окт-14

Азиатские фильмы ·· Непрощенный / Unforgiven / Yurusarezaru mono (Ли Сан Иль / Lee Sang Il) [2013, Япония, драма, BDRip 1080p] Original Jap + Sub (Rus, Eng, Chi) Galfimbul 1617662463815.07 GB 0 0 1412880127

21:42

9-Окт-14

Азиатские фильмы ·· Непрощенный / Unforgiven / Yurusarezaru mono (Ли Сан Иль / Lee Sang Il) [2013, Япония, Драма, BDRip 720p] Sub Rus, Eng + Original Jap Galfimbul 71147860176.63 GB 0 0 1412778366

17:26

8-Окт-14

Зарубежные сериалы ·· Непрощенная / Unforgiven / Сезон: 1 / Серии: 1-3 из 3 (Дэвид Эванс) [2009, драма, HDTVRip 720p] MVO (Кинопоказ) + Original Galfimbul 63920805415.95 GB 0 0 1388151429

16:37

27-Дек-13

Зарубежные фильмы до 2016 ·· Непрощённый / Unforgiven (Клинт Иствуд / Clint Eastwood) [1992 г., вестерн / драма, DVDRip] Galfimbul 734459904700 MB 0 0 1365330727

13:32

7-Апр-13

Зарубежные фильмы до 2016 ·· Непрощенный / Unforgiven (Клинт Иствуд / Clint Eastwood) [1992, США, драма, вестерн, BDRip-AVC 720p] DUB + MVOx2 + DVO + AVOx4 + Comments + Original + subs (rus, eng) Galfimbul 51805570664.82 GB 0 0 1365330448

13:27

7-Апр-13

Зарубежные фильмы до 2016 ·· Непрощенный / Unforgiven (Клинт Иствуд /Clint Eastwood) [1992 г., Вестерн, DVDRip] Galfimbul 20688629761.93 GB 0 0 1365328870

13:01

7-Апр-13

Зарубежные фильмы до 2016 ·· Непрощенный / Unforgiven (Клинт Иствуд / Clint Eastwood) [1992, США, Вестерн, BDRip] Dub (Варус видео) Galfimbul 821331968783 MB 0 0 1365328043

12:47

7-Апр-13

Еще никто не оставлял запись к записи скачать торрент Непрощенный . Будь первым!

!Обратная связь