Скачать через торрент Счастья! Здоровья! Фильм бесплатно в хорошем качестве torrent

Скачивайте на UnionPeer.org фильмы через торрент без регистрации. Новинки кино в хорошем качестве через торрент. На UnionPeer.org можно скачать через торрент фильмы 2014 и 2015 годов. Самые новые фильмы.

Скачать торрент Счастья! Здоровья! бесплатно через .torrent фильм мультфильм сериал

Статистика раздачи
Размер:  2.95 GB   |    Зарегистрирован:  1 месяц 3 дня   |    .torrent скачан:  206 раз   |   
Раздают:  1  
   
загрузка...
 
Автор Сообщение

Galfimbul

avatar Galfimbul


«Основано на реальных традициях»

Счастья! Здоровья!



[b]Год выпуска:
2018
Жанр: Комедия
Режиссёр: Марк Горобец, Арман Марутян, Леонид Марголин
В ролях: Зоя Бербер, Камиль Ларин, Марина Федункив, Сергей Аброскин, Наталья Рудова, Грант Тохатян, Даниил Вахрушев, Олег Верещагин, Дарья Пынзарь, Стася Милославская

Описание:
Три влюблённые пары — татарская, армянская и русская — готовятся сыграть свадьбы. Но выясняется, что для Рината и Гузельки свадьба — это способ добыть деньги, чтобы вернуть дорогую скрипку, для отца Артура важнее всего, чтобы свадьба его сына и москвички-Юли прошла в Армении, а у Светы есть «скелет в шкафу» — её «бывший» Андрей в день свадьбы с Олегом вышел из тюрьмы. Зато гости отрываются от души, а у зрителей фильма «Счастья! Здоровья!» есть уникальная возможность побывать сразу на трёх свадьбах. Тосты и конкурсы, песни и танцы, поцелуи и… драки — что за свадьба без драки?! Это бомбически круто и нереально смешно. Три свадьбы, три пары — такие разные, такие непохожие. Но любовь объединяет, а гости от души желают: «Счастья! Здоровья!»


Страна: Россия
Студия: Fresh Film
Продолжительность: 01:23:52
Язык: Русский

Файл
Формат: MKV
Качество: WEB-DL 1080p
Видео: 1920x804 (2.40:1), 24 fps, MPEG-4 AVC ~ 4657 kbps avg, 0.126 bit/pixel
Звук: AC3, 48 kHz, 6 ch, ~384.00 kbps avg | русский | iTunes

Субтитры: Отсутствуют
Общее
Уникальный идентификатор : 20492637542324489183878215518671440117 (0xF6ABD09A1CF247EA9B1D7CB96C188F5)
Полное имя : SCHASTYA_ZDOROVYA (2018) WEB-DL 1080p.mkv
Формат : Matroska
Версия формата : Version 4 / Version 2
Размер файла : 2,95 Гбайт
Продолжительность : 1 ч. 23 м.
Общий поток : 5043 Кбит/сек
Название фильма : Счастья! Здоровья! (2018)
Дата кодирования : UTC 2018-10-13 01:54:52
Программа кодирования : mkvmerge v27.0.0 ('Metropolis') 64-bit
Библиотека кодирования : libebml v1.3.6 + libmatroska v1.4.9

Видео
Идентификатор : 1
Формат : AVC
Формат/Информация : Advanced Video Codec
Профиль формата : High@L4
Настройки формата : CABAC / 5 Ref Frames
Параметр CABAC формата : Да
Параметр RefFrames формата : 5 кадров
Идентификатор кодека : V_MPEG4/ISO/AVC
Продолжительность : 1 ч. 23 м.
Битрейт : 4657 Кбит/сек
Ширина : 1920 пикселей
Высота : 804 пикселя
Соотношение сторон : 2,40:1
Режим частоты кадров : Постоянный
Частота кадров : 24,000 кадра/сек
Цветовое пространство : YUV
Субдискретизация насыщенности : 4:2:0
Битовая глубина : 8 бит
Тип развёртки : Прогрессивная
Бит/(Пиксели*Кадры) : 0.126
Размер потока : 2,73 Гбайт (92%)
Заголовок : SCHASTYA_ZDOROVYA (2018) WEB-DL 1080p
Язык : English
Default : Да
Forced : Нет
Цветовой диапазон : Limited
Основные цвета : BT.709
Характеристики трансфера : BT.709
Коэффициенты матрицы : BT.709

Аудио
Идентификатор : 2
Формат : AC-3
Формат/Информация : Audio Coding 3
Идентификатор кодека : A_AC3
Продолжительность : 1 ч. 23 м.
Вид битрейта : Постоянный
Битрейт : 384 Кбит/сек
Каналы : 6 каналов
Расположение каналов : Front: L C R, Side: L R, LFE
Частота : 48,0 КГц
Частота кадров : 31,250 кадров/сек (1536 SPF)
Битовая глубина : 16 бит
Метод сжатия : С потерями
Размер потока : 230 Мбайт (8%)
Заголовок : iTunes
Язык : Russian
Default : Да
Forced : Нет

Меню
00:00:00.000 : en:Глава 1
00:07:00.291 : en:Глава 2
00:12:13.499 : en:Глава 3
00:18:38.499 : en:Глава 4
00:26:23.665 : en:Глава 5
00:32:10.665 : en:Глава 6
00:39:42.373 : en:Глава 7
00:44:49.331 : en:Глава 8
00:50:51.706 : en:Глава 9
00:56:25.456 : en:Глава 10
01:00:54.372 : en:Глава 11
01:05:58.122 : en:Глава 12
01:13:15.955 : en:Глава 13
Источник http://BlaTor.org

Трекер:  [ 13-Окт-2018 05:10 ]

  

Скачать .torrent

Размер .torrent файла 15 KB


Размер: 2.95 GB
Хэш (hash) релиза: 1e47a3bc6088b42a04c8998d1bbb1883588e3842
Подписка на обновления:

Еще никто не оставлял запись к записи скачать торрент Счастья! Здоровья! . Будь первым!

!Обратная связь